Sâmbătă, 2017-11-18, 8:26 PM
Bine aţi venit Vizitator

Programe Tv Romanesti

[ Mesaje noi · Membrii · Regulamentul forumului · Căutare · RSS ]
Pagina 1 din 11
De Toate pentru Toti » De ToaTe pentru ToTi !! » Filme download prin Torrent » Green Lantern 2011
Green Lantern 2011
BesTPlayeRData: Duminică, 2011-10-02, 8:56 AM | Mesaj # 1
Maior
Grup: Administratori
Mesaje: 51
Premii: 1
Reputaţie: 26443
Stare: Offline
Download:Green Lantern 2011
Small Description:Action | Adventure | Fantasy | Sci-Fi | Thriller
Description:

General
Complete name : C:\Green.Lantern.2011.EXTENDED.BR.Rip.Ac3.Xvid.TCM\G.L.E.BR.TCM.avi
Format : AVI
Format/Info : Audio Video Interleave
File size : 1.97 GiB
Duration : 2h 3mn
Overall bit rate : 2 278 Kbps
Movie name : G.L.E.BR.TCM
Writing application : VirtualDub build 32842/release
Copyright : TCM

Video
ID : 0
Format : MPEG-4 Visual
Format profile : Advanced Simple@L5
Format settings, BVOP : 2
Format settings, QPel : No
Format settings, GMC : No warppoints
Format settings, Matrix : Default (H.263)
Muxing mode : Packed bitstream
Codec ID : XVID
Codec ID/Hint : XviD
Duration : 2h 3mn
Bit rate : 1 885 Kbps
Width : 720 pixels
Height : 288 pixels
Display aspect ratio : 2.500
Frame rate : 23.976 fps
Color space : YUV
Chroma subsampling : 4:2:0
Bit depth : 8 bits
Scan type : Progressive
Compression mode : Lossy
Bits/(Pixel*Frame) : 0.379
Stream size : 1.63 GiB (83%)
Writing library : XviD 1.2.1 (UTC 2008-12-04)

Audio
ID : 1
Format : AC-3
Format/Info : Audio Coding 3
Mode extension : CM (complete main)
Codec ID : 2000
Duration : 2h 3mn
Bit rate mode : Constant
Bit rate : 384 Kbps
Channel(s) : 6 channels
Channel positions : Front: L C R, Side: L R, LFE
Sampling rate : 48.0 KHz
Bit depth : 16 bits
Compression mode : Lossy
Stream size : 340 MiB (17%)
Alignment : Aligned on interleaves
Interleave, duration : 42 ms (1.00 video frame)
Interleave, preload duration : 512 ms
Language : English
Subs : English hardcoded where needed
Sample : Yes

source file : Green.Lantern.2011.EXTENDED.720p.Bluray.x264-MHD






 
class="postUser" href="javascript://" onClick="emoticon('BesTPlayeR,');return false;">
De Toate pentru Toti » De ToaTe pentru ToTi !! » Filme download prin Torrent » Green Lantern 2011
Pagina 1 din 11
Căutare: